#TITLE:this time;
#SUBTITLE:;
#ARTIST:W-inds;
#TITLETRANSLIT:;
#SUBTITLETRANSLIT:;
#ARTISTTRANSLIT:;
#CREDIT:;
#BANNER:this time_logo.jpg;
#BACKGROUND:this time.jpg;
#LYRICSPATH:;
#CDTITLE:Lan.png;
#MUSIC:this time.mp3;
#OFFSET:-0.040;
#SAMPLESTART:100.000;
#SAMPLELENGTH:12.000;
#SELECTABLE:YES;
#BPMS:0.000=154.000;
#STOPS:;
#BGCHANGES:;
// cache tags:
#FIRSTBEAT:4.000;
#LASTBEAT:344.125;
#SONGFILENAME:Songs/SDO pack 4/this time/this time.sm;
#HASMUSIC:1;
#HASBANNER:1;
#MUSICLENGTH:140.163;
// end cache tags

//---------------dance-single - sky----------------
#NOTES:
     dance-single:
     sky:
     Hard:
     10:
     0.828,0.890,1.000,0.057,0.150,653.000,151.000,8.000,0.000,12.000:

0000
0000
0000
0000
,
1100
0001
0010
1000
0010
0001
0100
0010
,
0101
1000
0100
0010
1001
0010
0100
0010
,
0101
0010
0100
1000
0010
1000
0100
0010
,
1001
0000
0010
0000
1000
0000
0100
0000
1001
0010
0100
1000
0001
0010
0100
1000
,
0001
1000
0010
0100
0011
1000
0010
0100
,
1001
0100
0001
0010
1000
0100
1000
0001
,
1000
0010
1000
0010
0100
0010
0001
0010
,
0101
1000
0100
0001
0100
1000
0010
0001
,
1010
0100
0010
0001
1010
0100
0010
0001
,
1100
0000
0220
0000
,
1331
0010
0001
1010
0100
0000
0010
0001
,
1010
0000
1010
1000
0100
0000
0001
0010
,
1100
0001
1000
0010
0101
0000
0010
0100
,
0001
0000
0000
0000
0000
0000
0100
0000
1001
0000
0100
0010
0001
0000
0100
0000
,
1010
0100
1001
0010
0100
0000
1001
0010
,
1100
0000
1001
0100
0001
0010
0010
0100
,
1001
0000
0101
0010
1100
1010
0001
0100
,
0011
0000
0100
0000
0100
0000
0010
0000
0001
0000
0100
0100
1001
0000
0101
0000
,
1000
0010
0100
1000
1100
0000
0010
0100
,
0101
0000
0001
0010
1100
0001
0001
0100
,
0110
0001
1000
0100
0110
1000
0001
0110
,
0101
0000
0000
0000
0001
0000
0010
0000
1100
0000
0010
0010
1000
0000
0001
0000
,
0100
1000
1000
0001
0100
1000
0001
0100
,
1100
0000
0101
1010
0100
0010
1100
0001
,
1010
0001
0001
0010
0110
0001
1010
1010
,
0100
0000
0100
0000
1001
0000
0101
0000
0100
0000
0001
0001
1100
0000
0010
0000
,
1002
0100
1000
1000
0010
1000
0100
1000
,
0010
0010
0100
1000
0110
1000
1000
0100
,
0200
0000
0000
1000
1010
0000
0000
1000
,
0310
0000
1000
0000
0000
0000
1000
0000
1010
0000
1000
0100
1003
0000
0010
0000
,
2010
0001
0100
0010
0101
0010
0000
0010
,
0001
0000
0010
0100
0101
0000
0000
0100
,
3110
0001
0100
0001
1010
0000
0100
0001
,
1010
0000
1000
0000
0101
0000
0100
0000
1010
0000
0001
0010
1100
0000
0001
0000
,
1000
0000
0100
0010
0001
1000
0010
0100
,
0001
0000
0010
0100
0010
0000
1000
0000
0101
0000
0000
0000
0000
0000
0000
0000
,
0001
0010
0100
1000
0001
0010
1000
0100
,
0001
0100
0010
0100
0001
1000
0010
0100
,
0001
1000
0010
0100
1000
0001
1000
0100
,
1001
0000
0000
1010
0000
0000
0101
1000
,
0001
1000
0100
0001
0001
1000
0100
0001
,
0010
1000
0010
0100
0001
0100
0010
1000
,
0011
1000
0010
0100
0001
0000
0000
0000
,
1000
0010
0100
0001
1100
0000
0000
0000
,
1001
1000
1010
1000
0101
0001
1001
0001
,
1010
1000
1001
0100
0101
0001
1001
0001
,
0101
0100
0001
0001
1000
1000
0001
0001
,
0100
0000
0100
0000
0010
0000
0010
0000
1000
0000
1000
0100
0001
0000
0001
0000
,
0100
1000
0010
0100
0001
0010
1000
0010
,
0001
0100
0010
1000
0100
0001
0100
1000
,
0010
0000
1000
0000
0001
0000
0010
0000
1000
0000
0000
0000
0001
0000
1000
0100
,
1010
0000
0001
0100
1000
0010
0001
1000
0220
0000
0000
0000
0000
0000
0000
0000
,
1331
0000
1010
0001
0100
1000
1000
0001
,
0100
1100
0011
0100
1010
0001
0010
0100
,
1001
0000
1000
0101
0010
1000
0100
0001
,
1001
0000
0100
0000
1000
0000
0010
0000
1001
0000
0000
0001
1010
0000
1100
0000
,
0001
0100
0010
0001
1001
0100
0001
0100
,
1100
0010
0001
0010
1000
0001
0100
0010
,
1010
1000
0001
0100
0010
1000
0100
0001
,
1001
0000
0000
0110
0000
0000
1001
0000
0100
0000
0100
1000
0011
0001
0001
0000
,
1100
0100
0100
0101
1000
0000
0100
0001
,
1010
0100
0000
1000
1001
0010
0100
1000
,
1001
0100
0010
0001
1001
0100
0010
0001
,
1100
0000
0001
0000
0011
1000
0000
0000
1000
0000
0000
0000
1001
0000
0010
0000
,
1000
0001
1000
0100
1001
0100
0001
0100
,
1100
0010
0001
0100
0010
0001
0001
0001
,
1010
0100
0001
1000
0010
1000
1000
1000
,
0110
0000
1001
0110
0000
0000
0101
0000
1010
0000
0100
0100
0001
0001
0001
0001
,
1100
0000
0101
1000
1010
0000
0011
1000
,
0010
0000
0100
0100
0011
1000
0010
0100
,
1001
0000
0010
0100
0011
1000
0010
0010
,
0001
1100
0000
0001
1100
0000
0001
0100
0001
0000
0010
0010
1000
0000
0001
0000
,
1010
1000
1000
0001
1010
0100
0001
0100
,
1010
0000
1000
0010
0110
0001
0100
1000
,
0011
1000
0010
1000
0001
0100
0100
0100
,
0001
0000
1000
0010
0000
0000
1000
0000
1001
0000
1001
0011
0001
0001
0101
0001
,
2010
0000
0010
0001
0010
0000
0001
0010
,
0001
0000
0001
0100
0011
0000
0001
0010
,
0100
0001
0100
0001
0010
0001
0100
0010
,
3001
0010
0100
1000
0001
0010
1000
0100
0001
1000
0010
0100
0001
1000
0010
0100
,
1001
0000
0101
0010
1001
0100
1010
0100
,
1001
0000
0010
0100
1001
0010
0100
1000
,
0101
1000
0010
1000
0001
1000
0010
1000
,
0101
1000
0100
0001
0101
1000
0101
0001
,
0101
1000
0101
0001
0101
1000
0101
0001
,
0101
1000
0000
0000
0000
0000
0000
0000
0000
0000
0000
0000
0000
0000
0000
0000
0000
0000
0000
0000
0000
0000
0000
0000
0000
0000
0000
0000
0000
0000
0000
0000
;
